Skip to main content

Ratdog Live at Allgood Festival - Ropeadope Stage on 2007-07-13

by Ratdog



The Ratdog Experiment
July 13, 2007
Allgood Festival - Ropeadope Stage
Marvin's Mountaintop
Masontown WV

Bob Weir - guitar
Jay Lane - drums
Jeff Chimenti - keyboards
Brian Stoltz - guitar
Kenny Brooks - saxophone
Robin Sylvester - bass
jawnzap7 (Randall Quinn) - guest mc

*** THIS IS A 24-BIT FILESET NOT INTENDED FOR AUDIO CD ***

SOURCE: mbho 603a/ka100dk (omni, jecklin) > mp2 > edirol r09 (24/48)
PROCESSING: soundforge 8.0 (tracking, fades) > flac 1.20a

01 soundcheck
02 Jam A
03 Jam B
04 Jam C
05 Jam C pt 2
06 Jam D
07 Jam E
08 Jam F


Collection Ratdog
Band/Artist Ratdog
Venue Allgood Festival - Ropeadope Stage
Location Masontown WV

Source mbho 603a/ka100dk (omni, jecklin) > mp2 > edirol r09 (24/48)
Lineage soundforge 8.0 (tracking, fades, resample, dither) > flac 1.20a
Taped by Peter W. King
Transferred by Peter W. King

Notes

length expanded size cdr WAVE problems fmt ratio filename
3:04.700 53193644 B cxx -- ---xx flac 0.6333 ratdogexperiment2007-07-13_mbho_t01.flac
11:39.600 201484844 B cxx -- ---xx flac 0.6449 ratdogexperiment2007-07-13_mbho_t02.flac
5:17.500 91440044 B cxx -- ---xx flac 0.6248 ratdogexperiment2007-07-13_mbho_t03.flac
7:09.100 123580844 B cxx -- ---xx flac 0.6703 ratdogexperiment2007-07-13_mbho_t04.flac
4:20.000 74880044 B cxx -- ---xx flac 0.6378 ratdogexperiment2007-07-13_mbho_t05.flac
5:05.800 88070444 B cxx -- ---xx flac 0.6538 ratdogexperiment2007-07-13_mbho_t06.flac
5:47.700 100137644 B cxx -- ---xx flac 0.6372 ratdogexperiment2007-07-13_mbho_t07.flac
8:21.000 144288044 B cxx -- ---xx flac 0.6483 ratdogexperiment2007-07-13_mbho_t08.flac
50:45.400 877075552 B 0.6457 (8 files)

Reviews

There are no reviews yet. Be the first one to write a review.
PEOPLE ALSO FOUND
Ratdog
by Ratdog
120
2
0
Source: schoeps mk4v (ORTF, OTS) > vms02ib > busman t-mod edirol r4 (24/48)
Ratdog
103
2
0
Source: mbho 603a/ka100dk (omni, jecklin) > mp2 > edirol r09 (24/48)
Ratdog
by Ratdog
981
2
1
( 1 reviews )
Source: schoeps mk4v (ORTF, OTS) > vms02ib > busman t-mod edirol r4 (24/48)
Ratdog
2,777
3
0
Source: mbho 603a/ka100dk (omni, jecklin) > mp2 > edirol r09 (24/48)
Porter Batiste Stoltz
by Porter Batiste Stoltz
223
1
0
Source: schoeps mk4v (ORTF, OTS) > vms02ib > busman t-mod edirol r4 (24/48)
Umphreys McGee
by Umphreys McGee
97
0
0
Source: mbho 603a/ka200n (cardioid, ORTF) > sound devices mp2 > busman t-mod edirol r4 (24/96)
Porter Batiste Stoltz
by Porter Batiste Stoltz
146
1
0
Source: schoeps mk4v (ORTF, OTS) > vms02ib > busman t-mod edirol r4 (24/48)
Bonerama
by Bonerama
655
1
0
Source: mbho 603a/ka200n (cardioid, ORTF) > sound devices mp2 > t-mod edirol r4
The Brakes
by The Brakes
216
0
0
Source: mbho 603a/ka200n (cardioid, ORTF) > sound devices mp2 > busman t-mod edirol r4 (24/96)
Benevento/Russo
by Benevento/Russo
933
1
0
Source: mbho 603a/ka100dk (omni, jecklin) > mp2 > edirol r09 (24/48)